×

Discussion Board

Results 1 to 2 of 2
  1. #1
    Registered User
    Join Date
    Nov 2011
    Posts
    1

    Nokia 5800 XPress video settings

    Can anyone help me to identify if next video settings are from 5800 XPress or from 5530?

    General
    Complete name : 08011981005.mp4
    Format : MPEG-4
    Format profile : Base Media / Version 2
    Codec ID : mp42
    File size : 25.9 MiB
    Duration : 1mn 17s
    Overall bit rate : 2 816 Kbps
    Encoded date : UTC 1981-01-08 11:24:30
    Tagged date : UTC 1981-01-08 11:24:30
    Video #1
    ID : 1
    Format : MPEG-4 Visual
    Format profile : Simple@L4a
    Format settings, BVOP : No
    Format settings, QPel : No
    Format settings, GMC : No warppoints
    Format settings, Matrix : Default (H.263)
    Codec ID : 20
    Duration : 1mn 17s
    Bit rate mode : Variable
    Bit rate : 2 700 Kbps
    Maximum bit rate : 3 000 Kbps
    Width : 640 pixels
    Height : 352 pixels
    Display aspect ratio : 16:9
    Frame rate mode : Variable
    Frame rate : 29.815 fps
    Minimum frame rate : 4.292 fps
    Maximum frame rate : 61.224 fps
    Color space : YUV
    Chroma subsampling : 4:2:0
    Bit depth : 8 bits
    Scan type : Progressive
    Compression mode : Lossy
    Bits/(Pixel*Frame) : 0.402
    Stream size : 25.0 MiB (96%)
    Encoded date : UTC 1981-01-08 11:24:30
    Tagged date : UTC 1981-01-08 11:24:30
    Audio #2
    ID : 2
    Format : AAC
    Format/Info : Advanced Audio Codec
    Format profile : LC
    Codec ID : 40
    Duration : 1mn 17s
    Bit rate mode : Constant
    Bit rate : 96.0 Kbps
    Channel(s) : 1 channel
    Channel positions : Front: C
    Sampling rate : 48.0 KHz
    Compression mode : Lossy
    Stream size : 904 KiB (3%)
    Encoded date : UTC 1981-01-08 11:24:30
    Tagged date : UTC 1981-01-08 11:24:30

    Thanks on advance!

  2. #2
    Nokia Developer Moderator
    Join Date
    Mar 2003
    Location
    Lempäälä/Finland
    Posts
    29,166

    Re: Nokia 5800 XPress video settings

    Welcome to the Nokia Developer discussion board, as this DiBo concentrates on development related issues, you might find more end-user problems related Dibo better suited for your query. Here's link for one: http://discussions.europe.nokia.com/

Similar Threads

  1. Ref Nokia 5800 Xpress
    By thesoldier1972 in forum General Development Questions
    Replies: 1
    Last Post: 2010-11-10, 14:26
  2. problem regarding converting video for 5800 xpress music
    By sidhu1990 in forum Streaming and Video
    Replies: 3
    Last Post: 2010-06-15, 09:11
  3. Nokia 5800 xpress music Accelerometer help
    By fincode in forum [Archived] Flash Lite on Nokia Devices
    Replies: 5
    Last Post: 2010-04-23, 19:45
  4. GPS in Nokia 5800 xpress
    By chithanh119 in forum General Development Questions
    Replies: 4
    Last Post: 2010-01-30, 07:48
  5. how to run a video in 5800 xpress music
    By arungupta_2jan in forum Mobile Java General
    Replies: 7
    Last Post: 2009-02-27, 13:05

Posting Permissions

  • You may not post new threads
  • You may not post replies
  • You may not post attachments
  • You may not edit your posts
  •  
×